#TITLE:Tuna 1613;
#SUBTITLE:By Hellowen66601@hotmail.com;
#ARTIST:Therion;
#TITLETRANSLIT:;
#SUBTITLETRANSLIT:;
#ARTISTTRANSLIT:;
#CREDIT:;
#BANNER:Banner.bmp;
#BACKGROUND:Background.bmp;
#LYRICSPATH:By Hellowen66601@hotmail.com.lrc;
#CDTITLE:Hellowen66601@hotmail.com.bmp;
#MUSIC:Tuna 1613.mp3;
#OFFSET:0.000;
#SAMPLESTART:100.000;
#SAMPLELENGTH:12.000;
#SELECTABLE:YES;
#BPMS:0.000=186.020,87.625=300.000,211.750=340.000,229.375=360.979,269.375=399.999,282.625=200.201,284.625=399.999,300.000=200.001,301.625=399.999,316.875=200.001,318.813=399.999,333.875=666.675,340.438=250.000,352.875=300.000,367.250=350.140,390.875=200.001,393.438=280.000,397.000=250.001,409.000=300.000,422.875=349.999,456.125=200.001,493.500=111.120,516.000=88.900,516.125=60.240,516.563=250.001,545.875=333.340,577.875=399.999,590.875=200.001,592.500=399.999,608.750=349.979,608.875=315.160,609.125=282.740,609.500=238.320,610.000=400.019,651.000=330.000,660.375=150.000,663.125=349.999,673.875=150.000,676.250=349.999,688.500=150.000,690.375=349.999,702.250=150.000,704.375=349.998,716.750=149.999,718.375=349.998,730.000=149.999,732.125=349.998,744.500=149.999,752.875=299.999,810.000=399.997;
#STOPS:339.875=0.120
;
#BGCHANGES:;
// cache tags:
#FIRSTBEAT:3.375;
#LASTBEAT:1233.625;
#SONGFILENAME:Songs/Music V.I.P ^_^/Therion - Tuna 1613/Tuna 1613.sm;
#HASMUSIC:1;
#HASBANNER:1;
#MUSICLENGTH:248.137;
// end cache tags

//---------------dance-single - Desparche----------------
#NOTES:
     dance-single:
     Desparche:
     Hard:
     15:
     1.000,1.000,1.000,1.000,1.000,1430.000,260.000,928.000,0.000,98.000:
0000
0000
0000
0000
0000
0000
0000
0000
0000
0000
0000
0000
0000
0000
0000
0000
0000
0000
0000
0000
0000
0000
0000
0000
0000
0000
0000
2100
0000
0000
0000
0000
,
0000
0000
0000
0000
0000
0000
0000
0000
0000
0000
0000
0000
0000
0000
0000
0000
0000
0000
0000
0000
0000
0000
0000
0000
0000
0000
0000
0000
0000
0000
3000
0210
,
0000
0000
0000
0000
,
0300
0021
0000
0000
0000
0000
0000
0000
0000
0000
0000
0000
0000
0000
0000
0000
0000
0000
0000
0000
0000
0000
0000
0000
0000
0000
0000
0000
0000
0000
0000
0000
,
0000
0000
0000
0000
0000
0000
0000
0000
0000
0000
0000
0000
0000
0000
0000
0000
0000
0000
0000
0000
0000
0000
0000
0000
0000
0030
0000
0000
0000
0000
0000
0000
,
0000
0000
0000
0000
0000
0012
0000
0000
0000
0000
0000
0000
0000
0000
0000
0000
,
0000
0000
0000
0000
0000
0000
0000
0000
0000
0000
0003
0120
0000
0000
0000
0000
0000
0000
0000
0000
0000
0000
0000
0000
0000
0000
0000
0000
0000
0000
0000
0000
,
0000
0000
0000
0000
0000
0000
0000
0000
0000
0000
0000
0000
0000
0030
1200
0000
0000
0000
0000
0000
0000
0000
0000
0000
0000
0000
0000
0000
0000
0000
0000
0000
,
0300
2001
0000
0000
0000
0000
0000
0000
0000
0000
0000
0000
0000
0000
0000
0000
0000
0000
0000
0000
3000
0102
0000
0000
0000
0000
0000
0000
0000
0000
0000
0000
,
0000
0000
0000
0000
0000
0000
0000
0000
0000
0000
0000
0003
0000
0000
0000
0000
,
0000
0210
0000
0000
0000
0000
0000
0000
0000
0000
0000
0000
0000
0000
0000
0000
0000
0000
0000
0000
0000
0000
0000
0000
0000
0000
0000
0000
0000
0000
0300
1002
,
0000
0000
0000
0000
0000
0000
0000
0000
0000
0000
0000
0000
0000
0000
0000
0000
0000
0000
0000
0000
0000
0000
0000
0000
0000
0000
0000
0000
0000
0000
0000
0003
,
2010
0000
0000
0000
0000
0000
0000
0000
0000
0000
0000
0000
0000
0000
0000
0000
0000
0000
3000
0201
0000
0000
0000
0000
0000
0000
0000
0300
2010
0000
0000
0000
,
0000
0000
0000
0000
3000
0210
0000
0000
0000
0000
0000
0000
0000
0000
0000
0000
0000
0000
0000
0000
0000
0000
0000
0000
0000
0000
0000
0000
0000
0000
0000
0000
,
0000
0000
0000
0000
0000
0000
0000
0300
1002
0000
0000
0000
0000
0000
0000
0000
0000
0000
0000
0000
0000
0000
0000
0000
0000
0000
0000
0000
0000
0000
0000
0000
,
0000
0000
0000
0000
0000
0003
0210
0000
0000
0000
0000
0000
0000
0000
0000
0000
0000
0000
0000
0000
0000
0300
2010
0000
0000
0000
0000
0000
0000
0000
0000
0000
,
3000
0021
0000
0000
0000
0000
0000
0000
0000
0000
0000
0000
0000
0000
0000
0000
0000
0000
0000
0000
0000
0000
0000
0030
2002
0000
0000
0000
0000
0000
0000
0000
,
0000
0000
0000
0000
,
0000
0000
0000
0000
,
0000
0000
0000
0000
,
0000
0000
0000
0000
,
0000
0000
0000
0000
0000
0000
0000
0000
0000
0000
0000
0000
0000
0000
0000
0000
0000
0000
0000
0000
0000
0000
0000
0000
0000
0000
0000
0000
3003
0022
0000
0000
,
0000
0000
0000
0000
0000
0000
0000
0000
0000
0000
0000
0000
0000
0000
0000
0000
0000
0000
0000
0033
1000
0000
0000
0000
0000
0000
0000
0000
0000
0000
0000
0000
,
0000
0000
0000
0000
0000
0022
0000
0000
0000
1033
0000
0000
0000
0100
0000
0000
0000
0010
0000
0000
0000
0100
0000
0000
0000
1000
0000
0000
0000
0001
0000
0000
,
0000
0010
0000
0000
0000
2200
0000
0000
0000
3310
0000
0000
0000
0100
0000
0000
0000
1000
0000
0000
0000
0001
0000
0000
0000
0010
0000
0000
0000
0100
0000
0000
,
0000
1000
0000
0000
0000
0100
0000
0000
0000
0010
0000
0000
0000
0100
0000
0000
0000
1000
0000
0000
0000
0001
0000
0000
0000
1000
0000
0000
0000
0010
0000
0000
,
0000
0100
0000
0000
0000
1000
0000
0000
0000
0100
0000
0000
0000
0022
0000
0000
0000
1033
0000
0000
0000
0100
0000
0000
0000
1000
0000
0000
0000
0010
0000
0000
,
0000
0001
0000
0000
0000
0100
0000
0000
0000
0010
0000
0000
0000
0100
0000
0000
0000
1000
0000
0000
0000
0001
0000
0000
0000
2200
0000
0000
0000
3310
0000
0000
,
0000
0001
0000
0000
0000
0100
0000
0000
0000
1000
0000
0000
0000
0010
0000
0000
0000
0001
0000
0000
0000
0100
0000
0000
0000
1000
0000
0000
0000
0001
0000
0000
,
0000
0010
0000
0000
0000
0100
0000
0000
0000
0010
0000
0000
0000
0100
0000
0000
0000
2002
0000
0000
0000
3103
0000
0000
0000
0010
0000
0000
0000
2002
0000
0000
,
0000
3003
0000
0000
0000
0100
0000
0000
0000
0010
0000
0000
0000
0100
0000
0000
0000
1000
0000
0000
0000
0001
0000
0000
0000
0010
0000
0000
0000
0100
0000
0000
,
0000
1000
0000
0000
0000
0100
0000
0000
0000
0022
0000
0000
0000
0133
0000
0000
0000
1000
0000
0000
0000
0100
0000
0000
0000
0010
0000
0000
0000
0100
0000
0000
,
0000
1000
0000
0000
0000
0001
0000
0000
0000
0010
0000
0000
0000
0100
0000
0000
0000
1000
0000
0000
0000
0001
0000
0000
0000
0010
0000
0000
0000
0100
0000
0000
,
0000
0001
0000
0000
0000
0100
0000
0000
0000
0010
0000
0000
0000
2200
0000
0000
0000
3301
0000
0000
0000
0010
0000
0000
0000
1000
0000
0000
0000
0100
0000
0000
,
0000
0001
0000
0000
0000
0100
0000
0000
0000
1000
0000
0000
0000
0001
0000
0000
0000
0100
0000
0000
0000
0022
0000
0000
0000
1033
0000
0000
0000
0100
0000
0000
,
0000
1000
0000
0000
0000
0012
0000
0000
0100
0003
0000
0010
0000
0000
1000
0000
0000
0001
0000
0000
0100
0000
0000
0010
0000
0000
0001
0000
0000
0100
0000
0000
,
1000
0000
0000
0100
0000
0000
0010
0000
0000
1000
0000
0000
0010
0000
0000
0100
0000
0000
0010
0000
0000
1000
0000
0000
0010
0000
0000
0100
0000
0000
0000
1022
,
0000
0000
0000
0000
0000
0033
0000
0000
0000
0000
0000
0000
0000
0000
0000
0000
0000
0000
0000
0000
0000
0000
1200
0000
0000
0000
0000
0000
0000
0000
0000
0000
,
0000
0000
0000
0000
0000
0300
0000
0000
0000
0000
0012
0000
0000
0000
0000
0000
0000
0000
0000
0000
0000
0000
0000
0000
0000
0000
0000
0000
0000
0000
0000
0000
,
0003
0000
0000
0000
0000
0000
0000
0000
0000
0000
0000
0000
0000
0022
0033
0000
0000
0000
0000
0000
0000
0000
0000
0220
0330
0000
0000
0000
0000
0000
0000
0000
,
2002
3003
0000
0000
0000
0000
0000
0000
0000
2020
3030
0000
0000
0000
0000
0000
0000
0000
0022
0000
0000
0000
0000
0000
0033
0000
0000
0000
0000
0000
0000
0000
,
0000
0200
0000
0300
0000
2002
0000
0000
,
0000
0000
0000
0000
0000
3003
0000
0000
,
0000
0000
0000
0120
0000
0000
0000
0000
0000
0000
0000
0000
0030
2001
0000
0000
0000
0000
0000
0000
0000
0000
0000
0000
3000
0210
0000
0000
0000
0000
0000
0000
,
0000
0000
0300
1002
0000
0000
0000
0000
0000
0000
0000
0000
0000
0000
0000
0000
0000
0000
0000
0000
0003
0120
0000
0000
0000
0000
0000
0000
0000
0000
0000
0000
,
0000
0000
0000
0000
0000
0000
0000
0000
0000
0000
0030
2002
0000
0000
0000
0000
0000
0000
0000
0000
0000
0000
0000
0000
0000
0000
0000
0000
0000
0000
0000
0000
,
0000
0000
0000
0000
0000
0000
0000
0000
0000
0000
0000
3003
0000
0000
0000
0000
0000
0000
0000
0000
0000
0000
0000
2100
0000
0000
0000
0000
0000
0000
0000
0000
,
0000
0000
0000
0000
,
0000
0000
0000
0000
0000
0000
0000
0000
0000
0000
0000
0000
0000
0000
0000
3000
2200
0000
3300
0010
0000
0000
0001
0000
0000
0010
0000
0000
0100
0000
0000
1000
,
0000
0000
0100
0000
0000
0010
0000
0000
0001
0000
0000
0000
2210
0000
0000
0000
0000
0000
0000
0000
0000
0000
0000
0000
0000
0000
0000
0000
0000
0000
0000
0000
,
0000
0000
0000
0000
0000
0000
3300
0022
0033
0000
0000
0000
0000
0000
0000
0000
0000
0220
0330
0000
0000
0000
0000
0000
0000
0000
0000
2200
3300
0000
0000
0000
,
0000
0000
0000
0021
0000
0000
0000
0000
0000
0000
0000
0000
0000
0000
0000
0000
0000
0000
0000
0000
0000
0000
0000
0000
0000
0030
2100
0000
0000
0000
0000
0000
,
0000
0000
0000
0000
0000
0000
0000
0000
0000
0000
0000
0000
0000
0000
0002
0000
0000
0000
0000
0000
0000
0000
0000
0000
0000
0000
0000
0000
0000
0000
0000
3003
,
0000
0000
0000
0000
0000
0000
0000
0000
0000
0000
0000
0000
0000
0000
0000
0000
0000
0000
0000
0000
0220
0330
0000
0000
0000
0000
0000
0000
0000
0022
0033
0000
,
0000
0000
0000
0000
0000
0000
0000
2020
3030
0000
0000
0000
0000
0000
0000
0000
0000
0000
0220
0330
0000
0000
0000
0000
0000
0000
0000
0000
0000
2010
0000
0000
,
0000
0000
0000
0000
0000
0000
0000
0000
0000
0000
0000
0000
0000
0000
0000
0000
3000
0000
0000
0201
0000
0000
0000
0000
0000
0000
0000
0000
0000
0000
0000
0000
,
0000
0000
0000
0000
0000
0000
0000
0000
0000
0300
0000
0000
2010
0000
0000
0000
0000
0000
0000
0000
0000
0000
0000
0000
0000
0000
0000
0000
0000
0000
0000
0000
,
0000
0000
0000
0000
0000
0000
0000
0000
0000
0000
0000
0000
3000
0000
0000
0000
0000
0022
0033
0000
0000
0000
0000
0000
0000
0000
0220
0330
0000
0000
0000
0000
,
0000
0000
0000
0000
0000
0000
2200
3300
0000
0000
0000
0000
0000
0000
0000
0000
0000
0220
0330
0000
0000
0000
0000
0000
0000
0000
0000
0000
0000
0000
0022
0003
,
0000
0000
0000
0000
0000
0000
0000
0000
0000
0000
0000
0000
0000
0000
0000
0000
0000
0000
0000
0000
0000
0030
0000
0102
0000
0000
0000
0000
0000
0000
0000
0000
,
0000
0000
0000
0000
0000
0000
0000
0000
0000
0000
0000
0000
0000
0000
0000
0003
0000
0000
0120
0000
0000
0000
0000
0000
0000
0000
0000
0000
0000
0000
0000
0000
,
0000
0000
0000
0000
0000
0030
0000
0000
,
0000
0000
0000
0000
0000
0012
0000
0000
0000
0000
0000
0000
0000
0000
0000
0000
0000
0000
0000
0000
0000
0000
0000
0000
0000
0000
0000
0000
0000
0000
0000
0000
,
0000
0000
0000
0000
,
0000
0000
0000
0000
0000
0000
0000
0000
0000
0000
0000
0003
0022
0000
0033
0100
0000
0000
1000
0000
0000
0100
0000
0000
0010
0000
0000
0001
0000
0000
0010
0000
,
0000
0100
0000
0000
1000
0000
0000
0100
0000
0000
0010
0000
2002
0000
0000
0000
0000
0000
0000
0000
0000
0000
0000
0000
0000
0000
0000
0000
3003
0000
0000
0000
,
0000
0000
0000
0000
0000
0000
0000
0000
0222
0333
0000
0000
0000
0000
0000
0000
0000
0000
0000
0000
0000
2202
3303
0000
0000
0000
0000
0000
0000
0000
0000
0000
,
2022
3033
0000
0000
0000
0000
0000
0000
0000
0000
0000
2002
0000
0000
0000
0000
0000
3003
0000
0000
0000
0000
0000
0000
0000
0000
0000
0020
0000
0000
0000
0000
,
0000
0130
0000
0000
0000
0000
0000
0000
0000
0000
0000
0000
0000
0000
2000
0000
0000
0000
0000
3001
0000
0000
0000
0000
0000
0000
0000
0000
0000
0000
0000
0200
,
0000
0000
0000
0301
0000
0000
0000
0000
0000
0000
0000
0000
0000
0000
0000
0000
0002
0000
0000
0000
0000
0013
0000
0000
0000
0000
0000
0000
0000
0000
0000
0000
,
0000
0020
0000
0000
0000
0000
0000
0000
0000
1030
0000
0000
0000
0000
0000
0000
0000
0000
0000
0000
0020
0000
0000
0000
0000
0000
0000
0000
0000
0000
0000
0000
,
0000
0000
0000
0000
0002
0033
0000
0000
0000
0000
0000
0000
0000
0000
0000
0000
0000
0000
0000
0000
0000
2002
0000
0000
0000
0000
3003
0000
0000
0000
0000
0000
,
0000
0000
0000
0020
0000
0000
0000
0000
0000
0000
0130
0000
0000
0000
0000
0000
0000
0000
0000
0000
0000
0200
0000
0000
0000
0000
0000
1300
0000
0000
0000
0000
,
0000
0000
0000
0000
0000
0000
0000
0000
0000
2000
0000
0000
0000
0000
3100
0000
0000
0000
0000
0000
0000
0000
0000
0000
0000
0200
0000
0000
0000
0000
0000
0000
,
0000
0310
0000
0000
0000
0000
0000
0000
0000
0000
0000
0000
0020
0000
0000
0000
0000
0000
0000
0000
0031
0000
0000
0000
0000
0000
0000
0000
0000
0000
0000
0200
,
0000
0000
0000
0000
0000
0000
0000
0000
0000
0000
0000
0000
2000
3300
0000
0000
0000
0000
0000
0000
0000
0000
0000
0000
0000
0000
0000
0000
0000
0000
2002
0000
,
0000
0000
0000
0000
3003
0000
0000
0000
0000
0000
2000
0000
0000
0000
0000
0000
0000
0000
3001
0000
0000
0000
0000
0000
0000
0000
0000
0000
0000
0002
0000
0000
,
0000
0000
1003
0000
0000
0000
0000
0000
0200
0000
0000
0310
0000
0000
0000
0000
,
0000
0000
0002
0000
0000
0000
0000
0000
0000
0103
0000
0000
0000
0000
0000
0000
0000
0000
0000
2000
0000
0000
0000
0000
0000
0000
0000
0000
3001
0000
0000
0000
,
0000
0000
0000
0000
0000
0000
0000
0000
0000
0000
0000
0000
0200
0000
0000
0000
0000
0000
0000
0000
0000
0000
0000
0000
0000
0000
0000
0000
0000
0000
0000
0000
0000
0000
0000
0000
0000
0000
0000
0000
0000
0000
0000
0002
0000
0303
0000
0000
0000
0000
0000
0000
0000
0000
0000
0000
0000
0000
0000
0000
0000
0000
0000
0000
,
0000
0000
0000
0000
0000
2002
0000
0000
0000
0000
0000
0000
3003
0000
0000
0000
0000
0000
0200
0000
0000
0000
0000
0000
0301
0000
0000
0000
0000
0000
0000
0000
,
0000
0000
2000
0000
0000
3010
0000
0000
0000
0000
0000
0200
0000
0000
0301
0000
,
0000
0000
0000
0000
0000
0000
0000
0000
0000
0000
2000
0000
0000
0000
0000
0000
0000
3010
0000
0000
0000
0000
0000
0000
0000
0000
0000
0000
0200
0000
0000
0000
,
0000
0000
0301
0000
0000
0000
0000
0200
0000
0000
0000
0000
0000
0000
0000
0000
,
0000
0000
0000
0000
0000
0000
0000
0000
0000
0000
0000
0000
0000
0000
0000
0000
0000
0000
0000
0000
0000
0000
0000
0000
0000
0000
0000
0000
0300
0000
0022
0033
,
0000
0000
0000
2200
3300
0000
0020
0000
0030
0002
0000
0003
0020
0000
0030
0200
0000
0300
2000
0000
3000
0200
0000
0300
0020
0000
0030
0002
0000
0003
0020
0000
,
0030
0200
0000
0300
2000
0000
3000
0200
0000
0300
0020
0000
0030
0002
0000
0003
0020
0000
0030
0200
0000
0300
2000
0000
3000
0200
0000
0300
0020
0000
0030
0002
,
0000
0003
0020
0000
0030
0200
0000
0300
0000
0000
2002
0000
0000
3003
0000
0000
0000
2020
0000
0000
3030
0000
0000
0000
2002
0000
0000
3003
0000
0000
0000
0220
,
0000
0000
0330
0000
0000
0000
0000
0022
0033
2000
3000
0002
0003
2000
3000
0002
0003
2000
3000
0002
0003
2000
3000
0002
0003
2000
3000
0002
0003
2000
3000
0002
,
0003
2000
3000
0002
0003
2000
3000
0002
0003
2000
3000
0002
0003
2000
3000
0002
0003
2000
3000
0002
0003
2000
3000
0002
0003
2000
3000
0002
0003
2000
3000
0002
,
0003
2000
3000
0002
0003
2000
3000
0002
0003
2000
3000
0002
0003
2000
3000
0002
0003
2000
3000
0002
0003
2000
3000
0002
0003
2200
0000
0000
3300
0000
0000
0000
,
0000
0000
0000
0000
0000
0220
0000
0000
0330
0000
0000
0000
0000
0000
0000
0000
2200
0000
0000
3300
0000
0000
0000
0000
0000
0000
2002
3003
0020
0030
0000
0200
,
0300
0000
0020
0030
0000
0200
0300
0000
0020
0030
0000
0200
0300
0000
0020
0030
0000
0200
0300
0000
0020
0030
0000
0200
0300
0000
0020
0030
0000
0200
0300
0000
,
0020
0030
0000
0200
0300
0000
0020
0030
0000
0200
0300
0000
0020
0030
0000
0200
0300
0000
0020
0030
0000
0200
0300
0000
0020
0030
0000
0200
0300
0000
0020
0030
,
0000
0200
0300
0000
0020
0030
0000
0200
0300
0000
0020
0030
0000
0200
0300
0000
0020
0030
0000
0200
0300
0000
2002
0000
0000
3003
0000
0000
0000
0000
0000
0000
,
0000
0000
0000
2002
0000
0000
3003
0000
0000
0000
0000
0000
0000
0000
0000
0000
2020
0000
0000
3030
0000
0000
0000
0000
0000
0000
0000
0220
0330
2000
3000
0200
,
0300
2000
3000
0200
0300
2000
3000
0200
0300
2000
3000
0200
0300
2000
3000
0200
0300
2000
3000
0020
0030
2000
3000
0020
0030
2000
3000
0020
0030
2000
3000
0020
,
0030
2000
3000
0020
0030
2000
3000
0020
0030
2000
3000
0020
0030
2000
3000
0020
0030
2000
3000
0020
0030
2000
3000
0200
0000
0000
0000
0000
0000
0000
0000
0000
,
0000
0000
0000
0000
0000
0000
0000
0000
0000
0000
0000
0000
0000
0000
0000
0000
0000
0000
2000
0000
3300
0000
0000
0022
0000
0000
0000
0000
0000
0033
0000
0000
0000
0000
0000
0000
0000
0000
0000
0000
0000
0000
0000
0000
0000
0000
2002
0000
0000
0000
0000
0000
3003
0000
0000
0000
0000
0000
0000
0000
0000
0000
2200
0000
,
0000
0000
3300
0000
0000
0000
0000
0000
0220
0330
0002
0003
0020
0030
0002
0000
0023
0030
0002
0003
0020
0030
0002
0003
0200
0300
0002
0003
0200
0300
0002
0003
,
0200
0300
0002
0003
0200
0300
0002
0003
0200
0300
0002
0003
0200
0300
0002
0003
2000
0000
3002
0000
2003
3000
0002
0003
2000
3000
0002
0003
2000
3000
0002
0003
,
2000
3000
0002
0003
2000
3000
0002
0003
2000
3000
0002
0003
2000
3022
0000
0000
0033
0000
0000
0000
0000
0000
0000
0220
0000
0000
0330
0000
0000
0000
0000
2200
,
0000
0000
3300
0000
0000
0000
0000
0000
0202
0303
0020
0030
0200
0300
0020
0030
2000
3000
0020
0030
0200
0300
0020
0030
0002
0003
0020
0030
0200
0300
0020
0030
,
1000
0000
0020
0030
0002
0003
0020
0030
0200
0300
0020
0030
0002
0003
0020
0030
0200
0300
0020
0030
2000
3000
0020
0030
0002
0003
0020
0030
0200
0300
0020
0030
,
0002
0003
0020
0030
0002
0003
0020
0030
0002
0003
0020
0030
0200
0300
0020
0030
0200
0300
0020
0030
2000
3000
0020
0030
0002
0003
0220
0000
0000
0330
0000
0000
,
0000
0000
0000
0000
0000
2002
0000
0000
3003
0000
0000
0000
0000
0000
0202
0000
0000
0303
0000
0000
0000
0000
0000
2020
3030
0200
0300
0020
0030
0200
0300
0020
,
0030
0200
0300
0002
0003
0200
0300
0002
0003
0200
0300
0002
0003
0020
0030
0200
0300
2000
3000
0200
0300
2000
3000
0200
0300
0020
0030
0200
0300
0020
0030
0200
,
0300
0002
0003
0200
0300
0020
0030
0200
0300
2000
3000
0200
0300
0020
0030
0200
0300
0002
0003
0200
0300
0020
0030
0200
0300
2000
3000
0200
0300
0020
0030
0200
,
0300
0020
0030
0200
0300
0002
0003
0200
0300
0020
0030
0200
0300
0020
0030
0200
0300
0002
0003
0200
2020
0000
0000
0330
0000
0000
0000
0000
0000
0000
0000
0000
,
0000
0000
0202
0000
0000
0303
0000
0000
0000
0000
0000
0000
0000
0000
0022
0000
0000
0033
0000
0000
0000
0000
0000
0000
0000
0000
0220
0000
0000
0000
0000
0000
,
0000
0330
0000
0000
0000
0000
0000
0000
0000
0000
0000
0000
0000
0000
0000
0000
0000
0000
0000
0000
0000
0000
0000
0000
0000
0000
0000
0000
0000
0000
0002
0000
,
0000
0000
0000
0000
0000
0000
0000
0000
0000
0000
0000
0000
0000
0000
0000
0000
0000
0000
0000
0000
0000
0000
0000
0000
0000
3003
0000
0000
0000
2002
3003
0100
,
0000
0010
0000
0001
0000
0010
0000
0100
0000
1000
0000
0100
0000
0010
0000
0001
0000
0010
0000
0100
0000
1000
0000
0100
0000
0010
0000
0001
0000
0220
0000
0000
,
0000
0000
0000
0000
0000
0000
0000
0000
0000
0000
0000
0000
0000
0000
0000
0000
0000
0000
0000
0000
0000
0000
0000
0000
0000
0000
0000
0000
0000
0330
0000
0000
,
0000
2000
0000
0000
0000
3000
0000
0000
0000
0001
0200
0000
0000
0300
0000
0000
0000
1000
0020
0000
0000
0000
0030
0000
0000
0000
0001
2000
0000
0000
0000
0000
,
3000
0000
0000
0100
0010
0002
0000
0000
0000
0003
0000
0010
1000
0200
0000
0000
0000
0000
0300
0000
0000
0001
0000
1000
0020
0000
0000
0030
0000
0000
0001
0100
,
2000
0000
0000
3000
0000
0000
0000
0000
0000
1000
0002
0000
0000
0000
0000
0003
0000
0000
0000
1000
0200
0000
0000
0000
0000
0300
0000
0000
0001
0020
0000
0000
,
0000
0030
0000
0000
0000
0100
2000
0000
0000
0000
0000
0000
0000
0000
3000
0000
0000
0100
0000
0001
1000
0000
0100
0000
0000
0001
0100
0000
1000
0000
0001
0000
,
0100
0000
0001
0000
1000
0000
0100
0000
0001
0000
0010
0000
1000
0000
0100
0000
0001
0000
0010
0000
0100
2002
0000
0000
0000
3003
0000
0000
0000
0000
0010
0200
,
0000
0000
0000
0300
0000
0000
0000
0001
2000
0000
0000
0000
3000
0000
0000
0000
0010
0002
0000
0000
0000
0003
0000
0000
0000
0000
0000
0000
0000
0001
0000
0010
,
0000
0100
0000
1000
0000
0022
0000
0000
0000
0000
0033
0000
0000
0000
0001
0000
0010
0000
0100
0000
1000
0000
0020
0000
0000
0000
0000
0000
0000
0030
0000
0000
,
0000
2010
0000
0000
0000
0000
0000
0000
0000
0000
3100
0000
0010
0000
1000
0000
0100
0000
0000
0021
0000
0000
0000
0000
0000
0000
0000
0000
0000
1032
0000
0000
,
0000
0000
0000
0000
0000
0000
0000
2013
0000
0000
0000
0000
0000
0000
0000
0000
3120
0000
0000
0000
0000
0000
0000
0000
0000
0000
0031
0000
0010
0000
0100
0000
,
0010
0000
0000
1002
0000
0000
0000
0000
0000
0000
0000
0003
2200
0000
0000
0000
0000
0000
0000
0000
3300
0000
0000
0000
0022
0000
0000
0000
0000
0000
0000
0033
,
0000
0000
0000
2002
0000
0000
0000
0000
0000
0000
0000
0000
0000
0000
0000
0000
0000
0000
0000
3003
0000
0000
0202
0000
0000
0000
0000
0303
0000
0000
0000
0000
,
0000
2020
0000
0000
0000
0000
0000
0000
3030
0000
0000
0000
0202
0000
0303
0000
0000
0022
0000
0033
0000
0000
2020
0000
0000
0000
0000
0000
0000
3030
0000
0000
,
0000
0022
0000
0000
0033
0000
0000
0000
0000
0000
0000
2200
0000
0000
0000
0000
3300
0000
0000
0000
0000
0000
0202
0303
0000
2020
3030
0220
0000
0330
0000
2002
,
0000
0000
0000
0000
0000
0000
0000
0000
0000
0000
3000
0000
0000
0000
0000
2013
0000
0000
0000
0000
0000
3002
0000
0000
0000
0000
0123
0000
0000
0000
0000
2030
,
0000
0000
0000
0000
0000
3021
0000
0000
0000
0000
2232
0000
0000
0000
0000
0000
,
0000
0000
3303
0000
0000
0000
0000
0000
0000
0000
0000
0000
0000
0000
0000
0001
0000
0000
0000
0000
0000
0000
1000
0000
0000
0000
0000
0000
0010
0000
0000
0000
0000
0000
0101
0000
0000
0000
0000
0000
0010
0000
0000
0000
0000
0000
0100
0000
0000
0000
0000
0000
0010
0000
0000
0000
0000
0000
0001
0000
0000
0000
0000
0000
,
0010
0000
0000
0100
0000
0000
1000
0000
0000
0001
0000
0000
1000
0000
0000
0001
0000
0000
0100
0000
0000
0001
0000
0000
0010
0000
0000
0100
0000
0000
0010
0000
,
0000
0001
0000
0000
0010
0000
0000
0100
0000
0000
1000
0000
0000
0010
0000
0000
1000
0000
0000
0001
0000
0000
1000
0000
0100
0001
0000
0000
0010
0000
0000
0100
,
0000
0000
0001
0000
0000
0100
0000
0000
0010
0000
0000
1000
0000
0000
0100
0000
1000
0001
0000
0000
0100
0000
0000
0010
0000
0000
0001
0000
0000
0100
0000
0000
,
0010
0000
0000
0100
0000
0000
1000
0000
0000
0100
0000
0000
0010
0000
0000
0001
0000
0000
0010
0000
0000
0001
0000
0000
0010
0000
0000
1000
0000
0000
0010
0000
,
0000
1000
0000
0000
0010
0000
0000
0001
0000
0000
0100
0000
0000
1000
0000
0000
0010
0000
0000
1000
0000
0000
0010
0000
0000
0002
0000
0003
0020
0000
0030
0200
,
0000
0300
2000
0000
3000
0200
0000
0300
0020
0000
0030
0002
0000
0003
0020
0000
0030
0200
0000
0300
2000
0000
3000
0200
0000
0300
0020
0000
0030
0002
0000
0003
,
0020
0000
0000
0000
0030
0000
0200
0000
0000
0000
0300
0000
2000
0000
0000
0000
3000
0000
0200
0000
0000
0000
0300
0000
0020
0000
0000
0000
0030
0100
2000
0000
0000
0000
0000
0000
0000
0000
0000
0000
0000
0000
0000
0000
0000
0000
0000
0000
0000
0000
0000
0000
0000
0000
0000
0000
0000
0000
0000
0000
0000
0000
3000
0000
,
0000
0010
0002
0000
0000
0000
0000
0000
0000
0000
0000
0000
0000
0000
0000
0000
0000
0000
0000
0000
0000
0000
0000
0000
0000
0000
0000
0000
0003
0000
0000
0100
0020
0000
0000
0000
0000
0000
0000
0000
0000
0000
0000
0000
0000
0000
0000
0000
0000
0000
0000
0000
0000
0000
0000
0000
0000
0000
0000
0000
0000
0000
0030
0000
,
0000
1000
0002
0000
0000
0000
0000
0000
0000
0000
0000
0000
0000
0000
0000
0000
0000
0000
0000
0000
0000
0000
0000
0000
0000
0000
0000
0000
0003
0000
0000
0000
0000
0100
2000
0000
0000
0000
0000
0000
0000
0000
0000
0000
0000
0000
0000
0000
3000
0000
0000
0010
0200
0000
0000
0000
0000
0000
0000
0000
0000
0000
0000
0000
,
0000
0000
0000
0000
0000
0000
0000
0000
0000
0000
0000
0000
0000
0000
0300
0000
0000
0001
0020
0000
0000
0000
0000
0000
0000
0000
0000
0000
0000
0000
0000
0030
0000
0000
0000
1000
0002
0000
0000
0000
0000
0000
0000
0000
0000
0000
0000
0000
0000
0000
0000
0000
0000
0000
0000
0000
0000
0000
0003
0000
0000
0000
0000
0000
,
0000
0010
0200
0000
0000
0000
0000
0000
0000
0000
0000
0000
0000
0000
0000
0000
0000
0000
0000
0000
0000
0000
0000
0000
0000
0000
0000
0000
0300
0000
0000
0000
0000
0000
0002
0000
0003
0000
0020
0000
0030
0000
0002
0000
0003
0000
0020
0000
0030
0000
0002
0000
0003
0000
0020
0000
0030
0000
0002
0000
0003
0000
0020
0000
,
0030
0002
0003
0020
0030
0002
0003
0020
0030
0002
0003
0020
0030
0002
0003
0020
0030
0002
0003
0020
0030
0002
0003
0020
0030
0002
0003
0200
0300
0002
0003
0200
,
0300
0002
0003
0200
0300
0002
0003
0200
0300
0002
0003
2000
3000
0002
0003
2000
3000
0002
0003
2000
3000
0002
0003
2000
3000
0002
0003
2000
3000
0002
0003
2000
,
3000
0002
0003
2000
3000
0002
0003
2000
3000
0002
0003
2000
3000
0002
0003
0020
0030
0200
0300
2002
0000
0000
0000
0000
0000
0000
0000
0000
0000
0000
0000
0000
,
0000
0000
0000
0000
0000
0000
0000
0000
0000
0000
3003
0000
0000
0000
0000
0220
0000
0000
0000
0000
0330
0000
0000
0000
0000
0002
0000
0000
0000
0000
0000
0000
,
0013
0000
0000
0000
0000
0000
0000
0000
0000
0000
0000
2000
0000
0000
0000
0000
0000
3001
0000
0000
0000
0000
0000
0000
0000
0000
0000
0000
0000
0000
0200
0000
,
0000
0000
0000
0000
0310
0000
0000
0000
0000
0000
0000
0000
0000
0000
0000
0000
0000
2000
0000
0000
0000
0000
0000
3001
0000
0000
0000
0000
0000
0000
0000
0000
,
0000
0000
0000
0200
0000
0000
0310
0000
0000
0000
0000
0002
0000
0000
0000
0000
,
0000
0000
0000
0000
0000
0000
0000
0200
0000
0303
0000
0000
0000
0000
0000
0000
0000
0000
0000
0000
0000
0000
0000
0000
0000
0000
0000
0000
0000
0000
0000
0000
0000
0000
0000
0000
0000
0000
0000
0000
0000
0000
0000
0000
0000
0000
0000
0000
0000
0000
0000
0000
0002
0000
0000
0000
0003
0000
0020
0000
0000
0000
0030
0000
,
0200
0000
0300
2000
0000
3000
0200
0000
0300
0020
0000
0030
0002
0000
0003
0020
0000
0030
0002
0000
0003
0200
0000
0300
0002
0000
0003
2000
0000
3000
0020
0000
,
0030
2000
0000
3000
0020
0000
0030
0002
0000
0003
0200
0000
0300
0020
0000
0030
2000
0000
3000
0002
0000
0003
0020
0000
0030
0200
0000
0300
0020
0000
0030
2000
,
0000
3000
0002
0000
0003
0200
0000
0300
0020
0000
0030
0002
0000
0003
2000
0000
3000
0020
0000
0030
0200
0000
0300
0002
0000
0003
0020
0000
0030
2000
0000
3000
,
0002
0003
2010
0000
0000
0000
0000
0000
0002
0000
0000
0000
3003
0000
0000
0000
,
0000
0000
0000
0000
0000
0000
0000
0000
0000
0000
0000
0000
0002
0000
0000
0000
0000
0000
0000
0000
0000
0000
0000
0000
0000
0003
0200
0000
0300
2000
0000
3000
,
0200
0000
0300
0020
0000
0030
2000
0000
3000
0200
0000
0300
0020
0000
0030
0002
0000
0003
0020
0000
0030
0002
0000
0003
0020
0000
0030
0200
0000
0300
2000
0000
,
3000
0200
0000
0300
0012
0000
0000
0000
0000
0000
0000
0000
0000
0000
0000
0000
0000
0000
0000
0000
0003
0200
0000
0300
0020
0000
0030
0002
0000
0003
0020
0000
,
0030
0200
0000
0300
0020
0000
0030
0002
0000
0003
0020
0000
0030
0200
0000
0300
2000
0000
3000
0200
0000
0300
2000
0000
3000
0200
0000
0300
0020
0000
0030
0200
,
0000
0300
2000
0000
3000
0200
0000
0300
0020
0000
0030
0002
0000
0003
0020
0000
0030
0200
0000
0300
2000
0000
3000
0200
0000
0300
0020
0000
0030
0002
0000
0000
,
0020
0000
0030
0200
0000
0300
2000
0000
3000
0200
0000
0300
2000
0000
3000
0200
0000
0300
0020
0000
0030
0200
0000
0300
0020
0000
0030
2000
0000
3000
0200
0000
,
0300
0020
0000
0030
0200
0000
0300
0020
0000
0030
0200
0000
0300
0020
0000
0030
0200
0000
0300
0020
0000
0030
2000
0000
3000
0200
0000
0300
0020
0000
0030
0200
,
0000
0300
0020
0000
0030
0200
0000
0300
2000
0000
3000
0200
0000
0300
0020
0000
0030
0200
0000
0300
2000
0000
3000
0200
0000
0300
2000
0000
3000
0200
0000
0300
,
2000
0000
3000
0200
0000
0300
0020
0000
0030
0200
0000
0300
2000
0000
3000
0200
0000
0300
2000
0000
3000
0200
0000
0300
0020
0000
0030
2000
0000
3000
0020
0000
,
0030
2000
0000
3000
0020
0000
0030
2000
0000
3000
0020
0000
0030
2000
0000
3000
0020
0000
0030
2000
0000
3000
0023
0000
0230
0000
0000
0000
0000
0000
0000
0000
,
0000
0000
0000
0000
0000
0000
0000
0000
0000
0000
0000
0300
2010
0000
0000
0000
0000
0000
0000
0000
0000
0000
0000
0000
0000
0000
0000
0000
0000
0000
0000
0000
,
0000
3000
0102
0000
0000
0000
0000
0000
0000
0000
0000
0000
0000
0000
0000
0000
0000
0000
0000
0000
0000
0000
0000
0003
0000
0000
0000
0000
0000
0000
0000
0000
,
0000
0000
0000
0000
0012
0000
0000
0000
0000
0123
0000
0000
0000
0000
0000
1230
0000
0000
0000
0000
2301
0000
0000
0000
0000
3020
0000
0000
0000
0000
0000
0000
,
0000
0000
0000
0000
0000
0000
0000
0000
0000
0000
0000
0000
0000
0000
0000
0030
0201
0000
0000
0000
0000
0000
0000
0000
0000
0000
0000
0000
0000
0000
0000
0000
,
0000
0000
0000
0000
0000
0300
2010
0000
0000
0000
0000
0000
0000
0000
0000
0000
0000
0000
0000
0000
0000
0000
0000
0000
0000
0000
0000
0000
0000
0000
0000
0000
,
0000
0000
0000
0000
0000
0000
3000
0000
0000
0000
0000
0000
0000
0000
0000
2100
0000
0000
0000
0000
3210
0000
0000
0000
0000
0321
0000
0000
0000
0000
1032
0000
,
0000
0000
0213
0000
0000
0000
0000
0000
0000
0000
0000
0000
0000
0000
0000
0000
0000
0000
0000
0000
0000
0000
0000
0000
0000
0000
0000
0000
0000
0000
0000
1320
,
0000
0000
0000
0000
0000
0000
0000
0000
0000
0000
0000
0132
0000
0000
0000
0000
,
0000
0000
0000
0000
0000
0000
0000
0000
0000
0000
0000
0000
0000
0000
0000
0000
0000
0000
0000
0000
0000
0000
0000
0003
0000
0000
0000
0000
0000
0000
0000
0000
,
0000
0000
0000
0000
0022
0000
0033
0000
0220
0000
0330
0000
0000
2200
0000
3300
0000
0000
2002
0000
3000
0000
0000
0000
0000
0000
0000
0000
0000
0000
0000
0000
,
0000
0000
0000
0000
0000
0000
0000
0000
0000
0000
0000
0000
0000
0000
0000
0000
0000
0023
0000
0000
0000
0000
0000
0000
0000
0000
0000
0000
0000
0000
0000
0000
,
0000
0000
0230
0000
,
0000
0000
0000
0000
0000
0000
0000
0000
0000
0000
0000
0000
0000
0000
0000
0000
0000
0300
2002
0000
3003
0000
0000
2200
0000
3300
0000
0000
0000
0022
0000
0033
,
0000
0220
0030
0000
0000
0000
0000
0000
0000
0000
0000
0000
0000
2301
0000
0000
,
0000
0000
0000
0000
0000
0000
0000
3021
0000
0000
0000
0000
0000
0000
0000
0000
,
0000
0000
0000
0000
0000
0000
0000
0000
0000
0000
0000
0132
0000
0000
0000
0000
0000
0000
0000
0000
0000
0000
0000
0000
0000
0000
0000
0000
1203
0000
0000
0000
,
0000
0000
0000
0300
0000
0000
0022
0000
0033
0000
2002
0000
3003
0000
2200
0000
3300
0000
2002
0000
0003
0000
0000
0000
0000
0000
0000
0000
0000
0000
0000
0000
,
0000
0000
0000
0000
0000
0000
0000
3012
0000
0000
0000
0000
0000
0000
0000
0000
,
0000
0000
0000
0000
0000
0000
0000
0000
0000
0000
0000
0000
0000
0000
0000
0000
0000
0000
0000
0000
0000
0000
0000
0000
0000
0000
0000
0000
0000
0000
0000
2103
,
0000
0000
0000
0000
0000
0000
0000
0000
0000
0000
3210
0000
0000
0000
0000
0300
2002
0000
3003
0000
0000
0000
0220
0000
0330
0000
0000
2020
0000
3030
0000
0000
,
0202
0003
0000
0000
0000
0000
0000
0000
0000
0000
0000
0000
0321
0000
0000
0000
,
0000
0000
0000
0000
0000
0000
0000
0000
0000
0000
0000
0000
0000
0000
0000
2130
0000
0000
0000
0000
0000
0000
0000
0000
0000
0000
0000
0000
0000
0000
0000
0000
,
0000
0000
0000
0000
0000
0000
0000
0000
0000
0000
0000
0000
0000
0000
0000
0000
0000
3012
0000
0000
0000
0000
0000
0000
0000
0000
0000
0000
1203
0000
0000
0000
,
0000
0000
0000
0300
0022
0000
0033
0000
0220
0000
0330
0000
2200
0000
3300
0000
0000
0220
0000
0300
0000
0000
0000
0000
0000
0000
0000
0000
0000
0000
0000
0000
,
0032
0000
0000
0000
0000
0000
0000
0000
0000
0000
0000
0000
0003
2200
0000
0000
0000
0000
0000
0000
0000
0000
0000
0000
0000
0000
0000
0000
0000
0000
0000
0000
,
0000
0000
0000
0000
0000
0000
3300
0021
0000
0000
0000
0000
0000
0000
0000
0000
0000
0000
0000
0000
0000
0000
0000
0000
0000
0000
0000
0000
0000
0000
0000
0000
,
0000
0000
0000
0000
0000
0000
0000
0231
0000
0000
0000
0000
0000
0000
0000
0000
0000
0000
0000
0000
0000
0000
0000
0000
0000
0000
0000
0000
0000
0000
0000
0000
,
0000
0000
0000
0312
0000
0000
0000
0000
0000
0000
0000
0000
0000
0000
0000
0000
0000
0000
0000
0000
0000
0000
0000
0000
0000
0000
0000
0000
0000
0000
0000
0000
,
0000
0000
0000
0000
0000
0000
0000
0000
0000
0003
0000
0000
0000
0000
0000
0000
0000
0000
0000
0000
0000
0000
0000
0000
0000
0000
0000
0000
0021
0000
0000
0000
,
0000
0000
0000
0000
0000
0000
0000
0000
0000
0000
0000
0000
0000
0000
0000
0000
0000
0000
0000
0000
0000
0000
0000
0000
0000
2031
0000
0000
0000
0000
0000
0000
,
0000
0000
0000
0000
0000
0000
0000
0000
0000
0000
0000
0000
0000
0000
0000
0000
0000
0000
3000
0000
0000
0021
0000
0000
0000
0000
0000
0000
0000
0000
0000
0000
,
0000
0000
0000
0231
0000
0000
0000
0000
0000
0000
0000
0000
0000
0000
0000
0000
0000
0000
2301
0000
0000
0000
0000
0000
0000
0000
0000
0000
0000
0000
0000
0000
,
0000
0000
0000
0000
0000
0000
0000
3000
0000
0000
0000
0000
0000
0000
0021
0000
0000
0000
0000
0000
0000
0000
0000
0000
0000
0000
0000
0000
0000
0000
0000
0000
,
0000
0000
0000
0000
0000
0231
0000
0000
0000
0000
0000
0000
0000
0000
0000
0000
,
0000
0000
0000
0300
0000
0000
2020
0000
0000
0000
0000
0000
3030
0000
0000
0000
0202
0000
0000
0303
0000
0000
0220
0000
0000
0000
0000
0000
0000
0330
0000
0000
,
0000
2002
0000
0000
0003
0000
0000
0000
0000
0000
0000
0000
3000
0000
0000
0220
,
0000
0000
0000
0000
0000
0000
0000
0000
0000
0330
0000
0000
0000
0012
0000
0000
0000
0000
0000
0000
0000
0000
0000
0000
0000
0000
0000
0213
0000
0000
0000
0000
,
0000
0000
0000
0000
2301
0000
0000
0000
0000
0000
0000
3012
0000
0000
0000
0000
,
0000
0000
0000
0000
0000
0000
0000
0000
0000
0000
0000
0000
0000
0000
0000
0000
0000
0000
0000
0213
0000
0000
0000
0000
0000
0000
0000
0000
0000
0000
0000
0000
,
0000
0000
2322
0000
,
0033
0000
0000
0000
0000
0202
0000
0000
,
0000
0000
0000
0000
0000
0000
0000
0303
0000
0000
0000
0000
0000
0000
0000
0000
0000
0000
0000
0000
0000
0000
0000
0000
0000
0220
0000
0000
0000
0000
0000
0000
,
0000
0000
0000
0000
,
0000
0000
0330
0000
,
0000
0000
0000
0000
0202
0000
0000
0000
0000
0000
0000
0000
0000
0000
0000
0000
0000
0000
0000
0000
0000
0000
0000
0000
0000
0303
0000
0000
0000
0000
0000
0000
,
0000
0000
0000
0022
0000
0000
0000
0000
,
0000
0000
0000
3033
0000
0000
0000
0000
0000
0000
0000
0000
0000
0000
0000
0000
0000
0000
2002
0000
0000
0000
0000
0000
3003
0000
0000
0000
0000
0000
0000
0000
,
0000
0000
0000
0000
0000
0022
0000
0000
0000
0000
0000
0033
0000
0000
0000
0000
0000
0000
0000
0000
0000
0000
0000
0000
0000
0220
0000
0000
0000
0000
0000
0000
,
0000
0000
0000
0000
0330
0000
0000
0000
0000
0000
0000
0000
0000
0000
0000
0000
0000
0000
0000
0000
0000
0000
0000
0000
0000
0000
0000
0000
0000
0201
0000
0000
,
0000
0000
0000
0000
,
0000
2301
0000
0000
0000
0000
0000
0000
,
0000
0000
0000
0000
0000
0000
0000
0000
0000
3000
0022
0000
0000
0000
0000
0000
0000
0000
0000
0033
0000
0000
0000
0000
0220
0000
0000
0330
0000
0000
2200
0000
,
0000
0000
0000
0000
0000
3300
0000
0202
0000
0000
0000
0000
0000
0000
0000
0000
,
0000
0000
0000
0000
0000
0000
0000
0000
0000
0000
0000
0000
0000
0000
0000
0000
0000
0000
0000
0000
0000
0000
0000
0000
0000
0000
0000
0000
0000
0303
0000
0000
,
0000
0000
0000
0000
0000
0200
0000
0000
0000
0000
0000
0000
0000
0000
0000
0000
0000
0000
0000
0000
0000
0000
0000
0302
0000
0000
0000
0000
0000
0000
0000
0000
,
0000
0000
0000
0000
0000
0000
2003
0000
0000
0000
0000
0000
0000
0000
0000
3200
,
0000
0000
0000
0000
0000
0000
0000
0000
0000
0000
0000
0000
0000
0000
0000
0000
0000
0000
0000
0000
0000
0000
0000
0302
0000
0000
0000
0000
0000
0000
0000
0000
,
0000
0023
0000
0000
,
0000
0000
0000
0000
0000
0000
0000
0000
0000
0000
0000
0032
0000
0000
0000
0000
0000
0000
0000
0000
0000
0000
0000
0000
0000
0000
0000
0000
0000
0000
0000
0000
,
0000
0000
0000
0000
,
0000
0000
0000
0000
0000
0110
0000
0000
,
0000
0000
2000
0000
0000
0000
0000
0000
0000
3110
0000
0000
0000
0000
0000
0000
0000
0000
0000
0000
0000
0020
0000
0000
0000
0000
1130
0000
0000
0000
0000
0000
,
0000
0000
0000
0000
0000
0000
0020
0000
0000
0000
0000
1130
0000
0000
0000
0000
0000
0000
0000
0000
0000
0000
0000
0000
0000
0000
2000
0000
0000
0000
0000
3110
,
0000
0000
0000
0000
0000
0000
0000
0000
0000
0000
0000
0000
0000
0200
0000
0000
0000
0000
1310
0000
0000
0000
0000
0000
0000
0000
0000
0000
0000
0000
0000
0000
,
0000
0020
0000
0000
0000
1130
0000
0000
0000
0000
0000
0000
0000
0000
0000
0000
0000
0000
0000
0000
0200
0000
0000
0000
0000
1310
0000
0000
0000
0000
0000
0000
,
0000
0000
0000
0000
0000
0000
0000
0000
2000
0000
0000
0000
0000
3110
0000
0000
0000
0000
0000
0000
0000
0000
0000
0000
0000
0000
0000
0020
0000
0000
0000
0000
,
1130
0000
0000
0000
0000
0000
0000
0020
0000
1130
0000
0000
0000
0000
0000
0000
,
2000
0000
0000
0000
3110
0000
0000
0000
0000
0000
0000
0000
0000
0000
0000
0000
0000
0200
0000
0000
0000
0000
1310
0000
0000
0000
0000
0000
0000
0000
0000
0000
,
0000
0000
1000
0000
0000
0000
0000
0000
0000
0000
0000
0000
1000
0000
0000
0100
0000
0000
0010
0000
0000
0100
0000
0000
1000
0000
0000
0100
0000
0000
1000
0000
,
0000
0100
0000
0000
1000
0000
0000
0100
0000
0000
1000
0000
0000
0100
0000
0000
1000
0000
0000
0100
0000
0000
0010
0000
0000
0100
0000
0000
0010
0000
0000
0100
,
0000
0000
2020
3030
0000
0000
0000
0000
0000
0000
0000
0000
0000
0000
0000
0000
0000
0000
0000
0000
0000
0000
0000
0000
0000
0000
0000
0000
0000
0000
0000
0000
,
0000
0000
0000
0000
,
0000
0000
0000
0000
,
0000
0000
0000
0000
,
0000
0000
0000
0000
,
0000
0000
0000
0000
0000
0000
0000
0000
0000
0000
0000
0000
0000
0000
0000
0003
,
0000
0000
0000
0000
,
0000
0000
0000
0000
,
0000
0000
0000
0000
,
0000
0000
0000
0000
0000
0000
0000
0000
0000
0000
0000
0000
0000
1000
0000
0000
0100
0000
0000
1000
0000
0000
0010
0000
0000
0001
0000
0000
0100
0000
0000
0010
,
0000
0000
1000
0000
0000
0001
0000
0000
0010
0000
0000
0100
0000
0000
0001
0000
0000
0010
0000
0000
0001
0000
0000
0100
0000
0000
0001
0000
0000
1000
0000
0000
,
0100
0000
0000
1000
0000
0000
0100
0000
0000
0010
0000
0000
1000
0000
0000
0001
0000
0000
0010
0000
0000
1000
0000
0000
0010
0000
0000
1000
0000
0000
0100
0000
,
0000
0001
0000
0000
0100
0000
0000
0001
0000
0000
0010
0000
0000
0100
0000
0000
1000
0000
0000
0010
0000
0000
0100
0000
0000
0001
0000
0000
0010
0000
0000
1000
,
0000
0000
0100
0000
0000
0010
0000
0000
0001
0000
0000
0010
0000
0000
0100
0000
0000
1000
0000
0000
0100
0000
0000
0010
0000
0000
0001
0000
0000
0010
0000
0000
,
0100
0000
0000
0010
0000
0000
0001
0000
0000
1000
0000
0000
0100
0000
0000
0010
0000
0000
0100
0000
0000
1000
0000
0000
0001
0000
0000
0010
0000
0000
0100
0000
,
0000
1000
0000
0000
0001
0000
0000
0010
0000
0000
0100
0000
0000
1000
0000
0000
0001
0000
0000
0010
0000
0000
0100
0000
0000
0010
0000
0000
0001
0000
0000
1000
,
0000
0000
0100
0000
0000
0010
0000
0000
0001
0000
0000
1000
0000
0000
0100
0000
0000
0010
0000
0000
0100
0000
0000
1000
0000
0000
0001
0000
0000
0010
0000
0000
,
0100
0000
0000
1000
0000
0000
0001
0000
0000
0010
0000
0000
0100
0000
0000
1000
0000
0000
0002
0000
0000
0000
0000
0000
0000
0000
0000
0000
0000
0000
0000
0000
,
0000
0000
0000
0000
0000
0000
0000
0000
0000
0000
0000
0000
0000
0000
0000
0000
0000
0000
0000
0000
0000
0000
0000
0000
1003
0000
0000
0100
0000
0000
0010
0000
,
0000
0001
0000
0000
0010
0000
0000
0100
0000
0000
1000
0000
0000
0100
0000
0000
0010
0000
0000
0001
0000
0000
0010
0000
0000
0100
0000
0000
1000
0000
0000
0100
,
0000
0000
0010
0000
0000
0001
0000
0000
0010
0000
0000
0100
0000
0000
1000
0000
0000
0100
0000
0000
0010
0000
0000
0001
0000
0000
0010
0000
0000
0100
0000
0000
,
1000
0000
0000
0100
0000
0000
0010
0000
0000
0001
0000
0000
0010
0000
0000
0100
0000
0000
1000
0000
0000
0100
0000
0000
0010
0000
0000
0001
0000
0000
0010
0000
,
0000
0100
0000
0000
1000
0000
0000
0022
0000
0000
0000
0000
0000
0000
0000
0000
0000
0000
0000
0000
0000
0000
0000
0000
0000
0000
0000
0000
0000
0000
0000
0000
,
0000
0000
0000
0000
0000
0000
0000
0000
0000
0000
0000
0000
0000
0000
0000
0000
0000
0000
1033
0000
0000
0100
0000
0000
1000
0000
0000
0100
0000
0000
0010
0000
,
0000
0001
0000
0000
0010
0000
0000
0001
0000
0000
0010
0000
0000
0100
0000
0000
0010
0000
0000
0100
0000
0000
0010
0000
0000
0100
0000
0000
1000
0000
0000
0100
,
0000
0000
1000
0000
0000
0100
0000
0000
0010
0000
0000
0001
0000
0000
0010
0000
0000
0100
0000
0000
0010
0000
0000
0100
0000
0000
0010
0000
0000
0100
0000
0000
,
1000
0000
0000
0100
0000
0000
0010
0000
0000
0001
0000
0000
0010
0000
0000
0001
0000
0000
0010
0000
0000
0100
0000
0000
0010
0000
0000
0001
0000
0000
0100
0000
,
0000
0010
0000
0000
1000
0000
0000
0100
0000
0000
0010
0000
0000
0001
0000
0000
0010
0000
0000
0100
0000
0000
0010
0000
0000
1000
0000
0000
0100
0000
0000
0010
,
0000
0000
0001
0000
0000
2010
0000
0000
0000
3100
0000
0000
0010
0000
0000
0100
0000
0000
0010
0000
0000
0001
0000
0000
0010
0000
0000
0100
0000
0000
0010
0000
,
0000
0100
0000
0000
1000
0000
0000
0010
0000
0000
0001
0000
0000
0010
0000
0000
0001
0000
0000
0010
0000
0000
0100
0000
0000
0010
0000
0000
0100
0000
0000
0010
,
0000
0000
0100
0000
0000
0010
0000
0000
0100
0000
0000
1000
0000
0000
0100
0000
0000
1000
0000
0000
0100
0000
0000
1000
0000
0000
0100
0000
0000
0010
0000
0000
,
0100
0000
0000
0010
0000
0000
0001
0000
0000
0010
0000
0000
0001
0000
0000
0010
0000
0000
0100
0000
0000
1000
0000
0000
0100
0000
0000
0010
0000
0000
0001
0000
,
0000
0010
0000
0000
0100
0000
0000
1000
0000
0000
0100
0000
0000
0010
0000
0000
0001
0000
0000
0010
0000
0000
0100
0000
0000
1000
0000
0000
0100
0000
0000
0010
,
0000
0000
0002
0000
0000
0013
0000
0000
0100
0000
0000
1000
0000
0000
0100
0000
0000
0010
0000
0000
0100
0000
0000
0010
0000
0000
0001
0000
0000
0010
0000
0000
,
0001
0000
0000
0010
0000
0000
0001
0000
0000
0010
0000
0000
0100
0000
0000
1000
0000
0000
0100
0000
0000
1000
0000
0000
0100
0000
0000
1000
0000
0000
0100
0000
,
0000
0010
0000
0000
1000
0000
0000
0100
0000
0000
0010
0000
0000
1000
0000
0000
0100
0000
0000
0010
0000
0000
0001
0000
0000
0010
0000
0000
0100
0000
0000
0001
,
0000
0000
0010
0000
0000
0100
0000
0000
0001
0000
0000
0010
0000
0000
0100
0000
0000
1000
0000
0000
0100
0000
0000
0010
0000
0000
0001
0000
0000
0010
0000
0000
,
0100
0000
0000
1000
0000
0000
0100
0000
0000
0010
0000
0000
0001
0000
0000
0010
0000
0000
0100
0000
0000
1000
0000
0000
0020
0000
0000
0000
0000
0000
0000
0000
,
0000
0000
0000
0000
0000
0000
0000
0032
,
0000
0000
0000
0000
,
0000
0203
0000
0000
0000
0000
0000
0000
0000
0000
0000
0000
0000
0000
0000
0000
0000
0000
0000
0000
0000
0000
0000
0000
0000
0000
0000
0000
0000
0000
0000
0000
,
0000
0000
0000
2300
0000
0000
0000
0000
0000
0000
0000
0000
0000
0000
0000
0000
,
0000
0000
0000
0000
0000
0000
0000
3020
0000
0000
0000
0000
0000
0000
0000
0000
,
0000
0000
0000
0000
0000
0000
0000
0000
0000
0000
0000
0000
0000
0000
0000
0000
0000
0000
0000
0230
0000
0000
0000
0000
0000
0000
0000
0000
0000
0000
0000
0000
,
0000
0000
0000
0000
0000
0000
0000
0000
0000
0000
0000
0000
0000
0000
0000
0000
0000
0000
0000
0000
0000
0000
0000
0000
0000
0000
0320
0000
0000
0001
0000
0000
,
1000
0000
0000
0001
0000
0000
1000
0000
0000
0001
0000
0000
1000
0000
0000
0001
0000
0000
1000
0000
0000
0001
0000
0000
1000
0000
0000
0001
0000
0000
1000
0000
,
0000
0001
0000
0000
1000
0000
0000
0001
0000
0000
1000
0000
0030
0001
0000
0000
2200
0000
0000
0000
0000
0000
0000
0000
0000
0000
0000
0000
0000
3300
0000
0000
,
0000
0000
0000
0000
0000
0022
0000
0000
0000
0000
0000
0000
0000
0000
0000
0000
0000
0000
0000
0000
0000
0000
0000
0000
0000
0000
0000
0000
0000
0000
0000
0000
,
0000
2233
0000
0000
,
0000
0000
0000
0000
0000
0000
0000
0000
0000
0000
0000
0000
0000
0000
0000
0300
3220
0000
0000
0000
0000
0000
0000
0000
0000
0000
0000
0000
0000
0000
0000
0000
,
0000
0000
0000
0000
0000
0000
0000
0000
0000
0000
0000
0000
0000
0000
0000
0000
0000
0000
0000
0300
0232
0000
0000
0000
0000
0000
0000
0000
0000
0000
0000
0000
,
0000
0000
0000
0000
0000
0000
0000
0000
0000
0000
0000
0000
0000
0000
0000
0000
0000
0000
0000
0000
0000
0000
0000
0000
0000
0000
0000
0300
2203
0000
0000
0000
,
0000
0000
0000
0000
0000
0000
0000
0000
0000
0000
0000
0000
0000
0000
0000
0000
0000
0000
0000
0000
0000
0000
0000
0000
0000
0000
0000
0000
0000
0000
0000
0300
,
3202
0000
0000
0000
,
0000
0000
0000
0000
0000
0000
0000
0300
0223
0000
0000
0000
0000
0000
0000
0000
0000
0001
0000
0000
0000
0000
0000
0000
0000
0000
0000
0000
1000
0000
0000
0000
,
0000
0000
0000
0000
0000
0000
0000
0000
0000
0001
0000
0000
0000
0000
0000
0000
0000
1000
0000
0000
0000
0000
0000
0001
0000
0000
0000
0000
0330
1000
0000
0000
,
0000
0000
0000
0001
0000
0000
0000
1000
0000
0000
0001
0000
0000
1000
0000
0120
0000
0000
0000
0000
0000
0000
0000
0000
0000
0000
0000
0000
0000
0000
0000
0000
,
0000
0000
0000
0000
0000
2130
0000
0000
,
0000
0000
0000
0000
0000
0000
0000
3012
,
0000
0000
0000
0000
,
0000
0000
0000
0123
0000
0000
0000
0000
0000
0000
0000
0000
0000
0000
0000
0000
0000
0000
0000
0000
0000
0000
0000
0000
0000
0000
0000
0000
0000
0000
0000
0000
,
0000
0000
0000
0000
0000
0000
0000
0000
0000
0000
0000
0231
0000
0000
0000
0000
0000
0000
0000
0000
0000
0000
0000
0000
0000
0000
0000
0000
0000
0000
0000
0000
,
0000
0000
0000
0000
0000
0000
0000
0000
0000
0000
0000
0000
0000
2301
0000
0000
0000
0000
0000
0000
0000
0000
0000
0000
0000
0000
0000
0000
0000
0000
0000
0000
,
0000
0000
0000
0000
0000
3012
0100
0010
,
0100
0010
0100
0010
0100
1000
0100
1000
,
0100
0000
0000
0000
0010
0000
0000
0100
0003
0000
1000
0000
0000
0100
0000
0022
0000
0000
0000
0000
0000
0000
0000
0033
0000
0000
0000
0000
0000
0120
0000
0000
,
0000
0000
0000
0000
,
0000
0231
0000
0000
0000
0000
0000
0000
0000
0000
0000
0000
0000
0000
0000
0000
,
0000
0000
0000
0000
0000
2310
0000
0000
0000
0000
0000
0000
0000
0000
0000
0000
,
0000
0000
3120
0000
,
0000
0000
0000
0000
0000
1032
0000
0000
,
0000
0000
0000
0000
,
0000
0000
0000
0000
0000
0000
0000
1000
,
0100
0010
0100
1000
0100
0010
0100
1000
,
0100
0010
0100
1000
0100
0010
0100
1000
,
0220
0000
0000
0000
0000
0000
0000
0000
0000
0000
0000
0000
0000
0333
0000
0000
0000
0000
0000
0000
0000
0000
0000
0000
0000
0000
0000
0000
0000
0000
0000
0000
;
